The.Pacific.720p.HDTV.DD5.1.x264-SpK

Thảo luận trong 'MegaShare.vn' bắt đầu bởi EverydayPhuong, 25/4/10.

  1. EverydayPhuong

    EverydayPhuong Fire in the hole!

    Tham gia ngày:
    15/3/09
    Bài viết:
    2,760
    [​IMG]

    Thông tin phim:

    * Tên phim: The Pacific
    * Thể loại: truyền hình, hành động, chiến tranh, tâm lý
    * Sản xuất: Steven Spielberg, Tom Hanks, Gary Goetzman
    * Kịch bản: Robert Leckie (hồi ký), Eugene Sledge (hồi ký), Bruce McKenna, George Pelecanos
    * Đạo diễn: Carl Franklin, Tim Van Patten, Graham Yost, Jeremy Podeswa, Tony To
    * Độ dài: 10 tập - 600 phút
    * Ngôn ngữ: tiếng Anh
    * Phát sóng: tháng 3/2010 trên HBO
    * IMDb: http://www.imdb.com/title/tt0374463/

    [​IMG]

    Cast:
    Bob Rumnock as Al the Waiter (10 episodes, 2010)
    Toby Leonard Moore as Lt. Stone / ... (6 episodes, 2010)
    Joshua Biton as Sgt. J.P. Morgan / ... (4 episodes, 2010)
    James Badge Dale as PFC Robert Leckie (2 episodes, 2010)
    Joseph Mazzello as Eugene Sledge (2 episodes, 2010)
    Jon Seda as John Basilone / ... (2 episodes, 2010)
    Jon Bernthal as Sgt. Manuel Rodriguez (2 episodes, 2010)
    Tom Budge as PFC Ronnie Gibson (2 episodes, 2010)
    Josh Helman as PFC Lew 'Chuckler' Juergens (2 episodes, 2010)
    Ashton Holmes as PFC Sidney Phillips (2 episodes, 2010)


    [video]e99B80crU3E[/video]


    Bộ phim đưa chúng ta đến chiến trường Thái Bình Dương - nơi những người lính thủy Hoa Kỳ giờ đây phải đối mặt với quân đội Nhật Hoàng. Ta làm quen với những nhân vật mới: Joseph Mazzello trong vai hạ sĩ Eugene "Sledgehammer" Sledge, Jon Seda trong vai pháo thủ Sergeant John Basilone, James Badge Dale trong vai binh nhì Robert Leckie và William Sadler - địa tá Lewis "Chesty" Puller, cùng nhiều sĩ quan khác trong lực lượng thủy quân Hoa Kỳ chiến đấu tại Nhật. Dựa trên 2 cuốn hồi ký With the Old Breed của Eugene Sledge và Helmet for My Pillow của Robert Leckie, bộ phim tập trung vào hành trình của 3 người lính: hạ sĩ Eugene "Sledgehammer" Sledge, pháo thủ Sergeant John Basilone, binh nhì Robert Leckie, trải qua cuộc chiến với quân đội Nhật Hoàng, trong đó có những trận đánh nổi tiếng tại Guadalcanal, Cape Gloucester, Peleliu, Okinawa và Iwo Jima. Bộ phim được đầu tư 250 triệu USD, với dàn diễn viên và đạo diễn hoàn toàn mới, dự kiến sẽ được phát sóng tháng 3/2010 trên hệ thống kênh HBO.

    Từ trước đến nay, chiến trường Thái Bình Dương trong Thế chiến 2 thường ít được nhắc đến trên màn ảnh hơn so với chiến trường chấu Âu. Chỉ một số ít những trận chiến nổi tiếng như Trân Châu Cảng được dựng phim, nà trong số đó không nhiều phim được đánh giá cao. Gần đây nhất năm 2006, đạo diễn Clint Eastwood đã cho ra mắt 2 bộ phim nói về trận chiến tại Iwo Jima: Flags of Our Fathers và Letters from Iwo Jima. 2 bộ phim là 2 cách nhìn khác nhau về cuộc chiến, dưới con mắt của người lính Hoa Kì và người lính Nhật Hoàng. Cả 2 đều do Steven Spielberg đóng vai trò sản xuất và đều được đánh giá khá cao. Liệu lần này ông có thể tiếp tục tạo nên một tác phẩm để đời nưa hay không, bên cạnh những Saving Private Ryan, Bands of Brother, rồi cả Flags of Our Fathers và Letters from Iwo Jima ? Mô tả một mặt trận vẫn còn nhiều điều để khai thác, liệu ông có thể tạo nên những thước phim kinh điển cho tác phẩm của mình hay không? Hãy chờ đến tháng 3/2010, và chúng ta đón chào The Pacific.​
     
    Chỉnh sửa cuối: 25/4/10
  2. EverydayPhuong

    EverydayPhuong Fire in the hole!

    Tham gia ngày:
    15/3/09
    Bài viết:
    2,760
    The.Pacific.Part.1.'Guadalcanal.Leckie'.720p.HDTV.DD5.1.x264-SpK


    [​IMG]

    Info:

    Mã:
    PRESENTS: The Pacific Part 1 'Guadalcanal Leckie' (2010)
    
    The.Pacific.Part.1.'Guadalcanal.Leckie'.720p.HDTV.DD5.1.x264-SpK
    
    General Information:
    
    RUNTIME........: 00h:58m:38s
    SIZE...........: 1.20 GB
    VIDEO CODEC....: x264 (L4.1)
    RESOLUTION.....: 1280x714
    BITRATE........: 2550 Kbps
    FRAMERATE......: 23.976 fps
    AUDIO..........: English AC3 5.1 384 Kbps
    SUBTITLES......: Vietnamese (External)
    SOURCE.........: The Pacific Part 1 'Guadalcanal Leckie' 1080i HDTV DD5.1 MPEG2-CtrlHD
    GENRE..........: Drama, War
    RATING.........: 9.6/10 (1,347 Votes)
    Download:

    Mã:
    [CENTER]http://megashare.vn/dl.php/579659
    http://megashare.vn/dl.php/579665[/CENTER]
    Password:

    Mã:
    [CENTER]hdmovie.vn[/CENTER]
     
  3. EverydayPhuong

    EverydayPhuong Fire in the hole!

    Tham gia ngày:
    15/3/09
    Bài viết:
    2,760
    The.Pacific.Part.2.'Basilone'.720p.HDTV.DD5.1.x264-SpK


    [​IMG]

    Info:


    Mã:
    General
    Complete name                    : The.Pacific.Part.2.720p.HDTV.DD5.1.x264-SpK.mkv
    Format                           : Matroska
    File size                        : 1.20 GiB
    Duration                         : 55mn 16s
    Overall bit rate                 : 3 108 Kbps
    Movie name                       : The.Pacific.Part.2.720p.HDTV.DD5.1.x264-SpK
    Encoded date                     : UTC 2010-03-28 20:03:55
    Writing application              : mkvmerge v3.2.0 ('Beginnings') built on Feb 12 2010 16:46:17
    Writing library                  : libebml v0.7.9 + libmatroska v0.8.1
    
    Video
    ID                               : 1
    Format                           : AVC
    Format/Info                      : Advanced Video Codec
    Format profile                   : High@L4.1
    Format settings, CABAC           : Yes
    Format settings, ReFrames        : 6 frames
    Muxing mode                      : Container profile=Unknown@4.1
    Codec ID                         : V_MPEG4/ISO/AVC
    Duration                         : 55mn 13s
    Bit rate                         : 2 662 Kbps
    Nominal bit rate                 : 2 725 Kbps
    Width                            : 1 280 pixels
    Height                           : 714 pixels
    Display aspect ratio             : 16:9
    Frame rate                       : 23.976 fps
    Resolution                       : 8 bits
    Colorimetry                      : 40
    Scan type                        : Progressive
    Bits/(Pixel*Frame)               : 0.122
    Stream size                      : 1.03 GiB (86%)
    Writing library                  : x264 core 88 r1471 1144615
    Encoding settings                : cabac=1 / ref=6 / deblock=1:-2:-2 / analyse=0x3:0x113 / me=umh / subme=10 / psy=1 / psy_rd=1.00:0.10 / mixed_ref=1 / me_range=24 / chroma_me=1 / trellis=2 / 8x8dct=1 / cqm=0 / deadzone=21,11 / fast_pskip=0 / chroma_qp_offset=-3 / threads=3 / sliced_threads=0 / nr=0 / decimate=0 / mbaff=0 / constrained_intra=0 / bframes=5 / b_pyramid=2 / b_adapt=2 / b_bias=0 / direct=3 / wpredb=1 / wpredp=2 / keyint=250 / keyint_min=25 / scenecut=40 / intra_refresh=0 / rc_lookahead=40 / rc=2pass / mbtree=1 / bitrate=2725 / ratetol=1.0 / qcomp=0.60 / qpmin=10 / qpmax=51 / qpstep=4 / cplxblur=20.0 / qblur=0.5 / ip_ratio=1.40 / aq=1:0.70
    Language                         : English
    
    Audio
    ID                               : 2
    Format                           : AC-3
    Format/Info                      : Audio Coding 3
    Codec ID                         : A_AC3
    Duration                         : 55mn 16s
    Bit rate mode                    : Constant
    Bit rate                         : 384 Kbps
    Channel(s)                       : 6 channels
    Channel positions                : Front: L C R, Surround: L R, LFE
    Sampling rate                    : 48.0 KHz
    Stream size                      : 152 MiB (12%)
    Language                         : English

    Download


    Mã:
    [CENTER]http://megashare.vn/dl.php/609958
    http://megashare.vn/dl.php/609960
    http://megashare.vn/dl.php/609961
    http://megashare.vn/dl.php/609962
    http://megashare.vn/dl.php/609963[/CENTER]

    Password

    Mã:
    [CENTER]http://hdmovie.vn[/CENTER]
     
    Chỉnh sửa cuối: 25/4/10
  4. EverydayPhuong

    EverydayPhuong Fire in the hole!

    Tham gia ngày:
    15/3/09
    Bài viết:
    2,760
    The.Pacific.Part.3.'Melbourne'.720p.HDTV.DD5.1.x264-SpK


    [​IMG]

    Info:
    Mã:
    General
    Complete name                    : The.Pacific.Part.3.'Melbourne'.720p.HDTV.DD5.1.x264-SpK.mkv
    Format                           : Matroska
    File size                        : 1.20 GiB
    Duration                         : 56mn 52s
    Overall bit rate                 : 3 026 Kbps
    Movie name                       : The.Pacific.Part.3.'Melbourne'.720p.HDTV.DD5.1.x264-SpK
    Encoded date                     : UTC 2010-04-02 03:47:18
    Writing application              : mkvmerge v3.2.0 ('Beginnings') built on Feb 12 2010 16:46:17
    Writing library                  : libebml v0.7.9 + libmatroska v0.8.1
    
    Video
    ID                               : 1
    Format                           : AVC
    Format/Info                      : Advanced Video Codec
    Format profile                   : High@L4.1
    Format settings, CABAC           : Yes
    Format settings, ReFrames        : 6 frames
    Muxing mode                      : Container profile=Unknown@4.1
    Codec ID                         : V_MPEG4/ISO/AVC
    Duration                         : 56mn 52s
    Bit rate                         : 2 582 Kbps
    Nominal bit rate                 : 2 640 Kbps
    Width                            : 1 280 pixels
    Height                           : 714 pixels
    Display aspect ratio             : 16:9
    Frame rate                       : 23.976 fps
    Resolution                       : 8 bits
    Colorimetry                      : 4:2:0
    Scan type                        : Progressive
    Bits/(Pixel*Frame)               : 0.118
    Stream size                      : 1.03 GiB (85%)
    Writing library                  : x264 core 92 r1510 33d382a
    Encoding settings                : cabac=1 / ref=6 / deblock=1:-3:-3 / analyse=0x3:0x113 / me=umh / subme=10 / psy=1 / psy_rd=1.20:0.20 / mixed_ref=1 / me_range=24 / chroma_me=1 / trellis=2 / 8x8dct=1 / cqm=0 / deadzone=21,11 / fast_pskip=0 / chroma_qp_offset=-3 / threads=3 / sliced_threads=0 / nr=0 / decimate=0 / interlaced=0 / constrained_intra=0 / bframes=5 / b_pyramid=2 / b_adapt=2 / b_bias=0 / direct=3 / wpredb=1 / wpredp=2 / keyint=250 / keyint_min=25 / scenecut=40 / intra_refresh=0 / rc_lookahead=40 / rc=2pass / mbtree=1 / bitrate=2640 / ratetol=1.0 / qcomp=0.60 / qpmin=10 / qpmax=51 / qpstep=4 / cplxblur=20.0 / qblur=0.5 / ip_ratio=1.40 / aq=1:0.70
    Language                         : English
    
    Audio
    ID                               : 2
    Format                           : AC-3
    Format/Info                      : Audio Coding 3
    Codec ID                         : A_AC3
    Duration                         : 56mn 52s
    Bit rate mode                    : Constant
    Bit rate                         : 384 Kbps
    Channel(s)                       : 6 channels
    Channel positions                : Front: L C R, Side: L R, LFE
    Sampling rate                    : 48.0 KHz
    Stream size                      : 156 MiB (13%)
    Language                         : English
    Download:
    Mã:
    [CENTER]http://megashare.vn/dl.php/579545
    http://megashare.vn/dl.php/579546[/CENTER]
    Password:
    Mã:
    [CENTER]hdmovie.vn[/CENTER]
     
    Chỉnh sửa cuối: 25/4/10
  5. EverydayPhuong

    EverydayPhuong Fire in the hole!

    Tham gia ngày:
    15/3/09
    Bài viết:
    2,760
    The Pacific.Part.4.'Gloucester.Pavuvu.Banika'.2010.720p.HDTV.DD5.1.x264-SpK


    [​IMG]

    Info:


    Mã:
    General
    Complete name                    : The.Pacific.Part.4.2010.720p.HDTV.DD5.1.x264-SpK.mkv
    Format                           : Matroska
    File size                        : 1.20 GiB
    Duration                         : 51mn 39s
    Overall bit rate                 : 3 337 Kbps
    Movie name                       : The Pacific Part Four 2010 720p HDTV DD5.1 x264 - SpK
    Encoded date                     : UTC 2010-04-17 14:21:15
    Writing application              : mkvmerge v3.3.0 ('Language') built on Mar 24 2010 14:59:24
    Writing library                  : libebml v0.8.0 + libmatroska v0.9.0
    
    Video
    ID                               : 1
    Format                           : AVC
    Format/Info                      : Advanced Video Codec
    Format profile                   : High@L4.1
    Format settings, CABAC           : Yes
    Format settings, ReFrames        : 6 frames
    Muxing mode                      : Container profile=Unknown@4.1
    Codec ID                         : V_MPEG4/ISO/AVC
    Duration                         : 51mn 39s
    Bit rate                         : 2 886 Kbps
    Nominal bit rate                 : 2 950 Kbps
    Width                            : 1 280 pixels
    Height                           : 714 pixels
    Display aspect ratio             : 16:9
    Frame rate                       : 23.976 fps
    Resolution                       : 8 bits
    Colorimetry                      : 4:2:0
    Scan type                        : Progressive
    Bits/(Pixel*Frame)               : 0.132
    Stream size                      : 1.04 GiB (87%)
    Writing library                  : x264 core 92 r1510 33d382a
    Encoding settings                : cabac=1 / ref=6 / deblock=1:-3:-3 / analyse=0x3:0x113 / me=umh / subme=10 / psy=1 / psy_rd=1.45:0.30 / mixed_ref=1 / me_range=24 / chroma_me=1 / trellis=2 / 8x8dct=1 / cqm=0 / deadzone=21,11 / fast_pskip=0 / chroma_qp_offset=-4 / threads=3 / sliced_threads=0 / nr=0 / decimate=0 / interlaced=0 / constrained_intra=0 / bframes=5 / b_pyramid=2 / b_adapt=2 / b_bias=0 / direct=3 / wpredb=1 / wpredp=2 / keyint=250 / keyint_min=25 / scenecut=40 / intra_refresh=0 / rc_lookahead=40 / rc=2pass / mbtree=1 / bitrate=2950 / ratetol=1.0 / qcomp=0.60 / qpmin=10 / qpmax=51 / qpstep=4 / cplxblur=20.0 / qblur=0.5 / ip_ratio=1.40 / aq=1:0.80
    Language                         : English
    
    Audio
    ID                               : 2
    Format                           : AC-3
    Format/Info                      : Audio Coding 3
    Codec ID                         : A_AC3
    Duration                         : 51mn 39s
    Bit rate mode                    : Constant
    Bit rate                         : 384 Kbps
    Channel(s)                       : 2 channels
    Channel positions                : Front: L R
    Sampling rate                    : 48.0 KHz
    Stream size                      : 142 MiB (12%)
    Language                         : English
    
    

    Download


    Mã:
    [CENTER]http://megashare.vn/dl.php/1083644/Zoazoa12-The.Pacific.Part.4.2010.720p.HDTV.DD5.1.x264-SpK.part1.rar
    http://megashare.vn/dl.php/1083683/Zoazoa12-The.Pacific.Part.4.2010.720p.HDTV.DD5.1.x264-SpK.part2.rar
    http://megashare.vn/dl.php/1083680/Zoazoa12-The.Pacific.Part.4.2010.720p.HDTV.DD5.1.x264-SpK.part3.rar[/CENTER]
    

    Password


    Mã:
    [center]hdmovie.vn [/center]
     
    Chỉnh sửa cuối: 25/4/10
  6. EverydayPhuong

    EverydayPhuong Fire in the hole!

    Tham gia ngày:
    15/3/09
    Bài viết:
    2,760
    The.Pacific.Part.5.'Peleliu.Landing'.720p.HDTV.DD5.1.x264-SpK


    [​IMG]

    Info:


    Mã:
    General
    Complete name                    : The.Pacific.Part.5.Peleliu.Landing.720p.HDTV.DD5.1.x264-SpK.mkv
    Format                           : Matroska
    File size                        : 1.20 GiB
    Duration                         : 49mn 48s
    Overall bit rate                 : 3 456 Kbps
    Movie name                       : The Pacific Part 5 Peleliu Landing 720p HDTV DD5.1 x264 - SpK
    Encoded date                     : UTC 2010-04-18 14:03:15
    Writing application              : mkvmerge v3.3.0 ('Language') built on Mar 24 2010 14:59:24
    Writing library                  : libebml v0.8.0 + libmatroska v0.9.0
    
    Video
    ID                               : 1
    Format                           : AVC
    Format/Info                      : Advanced Video Codec
    Format profile                   : High@L4.1
    Format settings, CABAC           : Yes
    Format settings, ReFrames        : 6 frames
    Muxing mode                      : Container profile=Unknown@4.1
    Codec ID                         : V_MPEG4/ISO/AVC
    Duration                         : 49mn 48s
    Bit rate                         : 3 003 Kbps
    Nominal bit rate                 : 3 070 Kbps
    Width                            : 1 280 pixels
    Height                           : 714 pixels
    Display aspect ratio             : 16:9
    Frame rate                       : 23.976 fps
    Resolution                       : 8 bits
    Colorimetry                      : 40
    Scan type                        : Progressive
    Bits/(Pixel*Frame)               : 0.137
    Stream size                      : 1.04 GiB (87%)
    Writing library                  : x264 core 92 r1510 33d382a
    Encoding settings                : cabac=1 / ref=6 / deblock=1:-3:-3 / analyse=0x3:0x113 / me=umh / subme=10 / psy=1 / psy_rd=1.60:0.20 / mixed_ref=1 / me_range=24 / chroma_me=1 / trellis=2 / 8x8dct=1 / cqm=0 / deadzone=21,11 / fast_pskip=0 / chroma_qp_offset=-3 / threads=3 / sliced_threads=0 / nr=0 / decimate=0 / interlaced=0 / constrained_intra=0 / bframes=5 / b_pyramid=2 / b_adapt=2 / b_bias=0 / direct=3 / wpredb=1 / wpredp=2 / keyint=250 / keyint_min=25 / scenecut=40 / intra_refresh=0 / rc_lookahead=40 / rc=2pass / mbtree=1 / bitrate=3070 / ratetol=1.0 / qcomp=0.60 / qpmin=10 / qpmax=51 / qpstep=4 / cplxblur=20.0 / qblur=0.5 / ip_ratio=1.40 / aq=1:0.80
    Language                         : English
    
    Audio
    ID                               : 2
    Format                           : AC-3
    Format/Info                      : Audio Coding 3
    Codec ID                         : A_AC3
    Duration                         : 49mn 48s
    Bit rate mode                    : Constant
    Bit rate                         : 384 Kbps
    Channel(s)                       : 6 channels
    Channel positions                : Front: L C R, Side: L R, LFE
    Sampling rate                    : 48.0 KHz
    Stream size                      : 137 MiB (11%)
    Language                         : English
    
    HDTV-----vs------SpK

    [​IMG] [​IMG]
    [​IMG] [​IMG]
    [​IMG] [​IMG]



    Download


    Mã:
    [CENTER]
    http://megashare.vn/dl.php/1083814/Zoazoa12-The.Pacific.Part.5.Peleliu.Landing.720p.HDTV.DD5.1.x264-SpK.part1.rar
    http://megashare.vn/dl.php/1083753/Zoazoa12-The.Pacific.Part.5.Peleliu.Landing.720p.HDTV.DD5.1.x264-SpK.part2.rar
    http://megashare.vn/dl.php/1083779/Zoazoa12-The.Pacific.Part.5.Peleliu.Landing.720p.HDTV.DD5.1.x264-SpK.part3.rar
    [/CENTER]

    Password


    Mã:
    [center]hdmovie.vn[/center]
     
  7. EverydayPhuong

    EverydayPhuong Fire in the hole!

    Tham gia ngày:
    15/3/09
    Bài viết:
    2,760
    The.Pacific.Part.6.'Peleliu.Airfield'.720p.HDTV.DD5.1.x264-SpK


    [​IMG]

    Info:


    Mã:
    General
    Complete name                    : The.Pacific.Part.6.2010.720p.HDTV.DD5.1.x264-SpK.mkv
    Format                           : Matroska
    File size                        : 1.20 GiB
    Duration                         : 49mn 28s
    Overall bit rate                 : 3 476 Kbps
    Movie name                       : The Pacific Part 6 2010 720p HDTV DD5.1 x264 - SpK
    Encoded date                     : UTC 2010-04-21 23:05:46
    Writing application              : mkvmerge v3.3.0 ('Language') built on Mar 24 2010 14:59:24
    Writing library                  : libebml v0.8.0 + libmatroska v0.9.0
    
    Video
    ID                               : 1
    Format                           : AVC
    Format/Info                      : Advanced Video Codec
    Format profile                   : High@L4.1
    Format settings, CABAC           : Yes
    Format settings, ReFrames        : 6 frames
    Muxing mode                      : Container profile=Unknown@4.1
    Codec ID                         : V_MPEG4/ISO/AVC
    Duration                         : 49mn 28s
    Bit rate                         : 3 023 Kbps
    Nominal bit rate                 : 3 090 Kbps
    Width                            : 1 280 pixels
    Height                           : 714 pixels
    Display aspect ratio             : 16:9
    Frame rate                       : 23.976 fps
    Resolution                       : 8 bits
    Colorimetry                      : 4:2:0
    Scan type                        : Progressive
    Bits/(Pixel*Frame)               : 0.138
    Stream size                      : 1.04 GiB (87%)
    Writing library                  : x264 core 93 r1542 5b86182
    Encoding settings                : cabac=1 / ref=6 / deblock=1:-3:-3 / analyse=0x3:0x113 / me=umh / subme=10 / psy=1 / psy_rd=1.50:0.70 / mixed_ref=1 / me_range=24 / chroma_me=1 / trellis=2 / 8x8dct=1 / cqm=0 / deadzone=21,11 / fast_pskip=0 / chroma_qp_offset=-4 / threads=3 / sliced_threads=0 / nr=0 / decimate=0 / interlaced=0 / constrained_intra=0 / bframes=4 / b_pyramid=2 / b_adapt=2 / b_bias=0 / direct=3 / wpredb=1 / wpredp=2 / keyint=250 / keyint_min=25 / scenecut=40 / intra_refresh=0 / rc_lookahead=40 / rc=2pass / mbtree=1 / bitrate=3090 / ratetol=1.0 / qcomp=0.60 / qpmin=10 / qpmax=51 / qpstep=4 / cplxblur=20.0 / qblur=0.5 / ip_ratio=1.40 / aq=1:0.80
    Language                         : English
    
    Audio
    ID                               : 2
    Format                           : AC-3
    Format/Info                      : Audio Coding 3
    Codec ID                         : A_AC3
    Duration                         : 49mn 28s
    Bit rate mode                    : Constant
    Bit rate                         : 384 Kbps
    Channel(s)                       : 6 channels
    Channel positions                : Front: L C R, Side: L R, LFE
    Sampling rate                    : 48.0 KHz
    Stream size                      : 136 MiB (11%)
    Language                         : English
    
    
    
    SS Compare

    HDTV-----vs------SpK

    [​IMG]
    [​IMG]
    [​IMG]
    [​IMG]



    Download


    Mã:
    [center]
    http://megashare.vn/dl.php/1083823
    http://megashare.vn/dl.php/1083816
    http://megashare.vn/dl.php/1083821
    [/center]
    

    Password


    Mã:
    [center]hdmovie.vn[/center]
     
    Chỉnh sửa cuối: 25/4/10
  8. EverydayPhuong

    EverydayPhuong Fire in the hole!

    Tham gia ngày:
    15/3/09
    Bài viết:
    2,760
    The.Pacific.Part.7.'Peleliu.Hills'.720p.HDTV.DD5.1.x264-SpK


    [​IMG]


    Info:

    Mã:
    General
    Complete name                    : The.Pacific.Part.7.2010.720p.HDTV.DD5.1.x264-SpK.mkv
    Format                           : Matroska
    File size                        : 1.20 GiB
    Duration                         : 50mn 53s
    Overall bit rate                 : 3 376 Kbps
    Movie name                       : The Pacific Part 7 (2010) 720p HDTV DD5.1 x264 - SpK
    Encoded date                     : UTC 2010-04-28 14:34:37
    Writing application              : mkvmerge v3.3.0 ('Language') built on Mar 24 2010 14:59:24
    Writing library                  : libebml v0.8.0 + libmatroska v0.9.0
    
    Video
    ID                               : 1
    Format                           : AVC
    Format/Info                      : Advanced Video Codec
    Format profile                   : High@L4.1
    Format settings, CABAC           : Yes
    Format settings, ReFrames        : 5 frames
    Muxing mode                      : Container profile=Unknown@4.1
    Codec ID                         : V_MPEG4/ISO/AVC
    Duration                         : 50mn 53s
    Bit rate                         : 2 925 Kbps
    Nominal bit rate                 : 2 990 Kbps
    Width                            : 1 280 pixels
    Height                           : 714 pixels
    Display aspect ratio             : 16:9
    Frame rate                       : 23.976 fps
    Resolution                       : 8 bits
    Colorimetry                      : 40
    Scan type                        : Progressive
    Bits/(Pixel*Frame)               : 0.133
    Stream size                      : 1.04 GiB (87%)
    Writing library                  : x264 core 93 r1542 5b86182
    Encoding settings                : cabac=1 / ref=6 / deblock=1:-3:-3 / analyse=0x3:0x113 / me=umh / subme=10 / psy=1 / psy_rd=1.35:0.35 / mixed_ref=1 / me_range=24 / chroma_me=1 / trellis=2 / 8x8dct=1 / cqm=0 / deadzone=21,11 / fast_pskip=0 / chroma_qp_offset=-4 / threads=3 / sliced_threads=0 / nr=0 / decimate=0 / interlaced=0 / constrained_intra=0 / bframes=3 / b_pyramid=1 / b_adapt=2 / b_bias=0 / direct=3 / wpredb=1 / wpredp=2 / keyint=250 / keyint_min=25 / scenecut=40 / intra_refresh=0 / rc_lookahead=40 / rc=2pass / mbtree=1 / bitrate=2990 / ratetol=1.0 / qcomp=0.60 / qpmin=10 / qpmax=51 / qpstep=4 / cplxblur=20.0 / qblur=0.5 / ip_ratio=1.40 / aq=1:0.80
    Language                         : English
    
    Audio
    ID                               : 2
    Format                           : AC-3
    Format/Info                      : Audio Coding 3
    Codec ID                         : A_AC3
    Duration                         : 50mn 53s
    Bit rate mode                    : Constant
    Bit rate                         : 384 Kbps
    Channel(s)                       : 6 channels
    Channel positions                : Front: L C R, Side: L R, LFE
    Sampling rate                    : 48.0 KHz
    Stream size                      : 140 MiB (11%)
    Language                         : English
    HDTV-----vs------SpK


    Source
    [​IMG]

    [​IMG]

    [​IMG]

    SpK

    [​IMG]

    [​IMG]

    [​IMG]

    Download
    Mã:
    [CENTER]http://megashare.vn/dl.php/1169499[/CENTER]
     
    Chỉnh sửa cuối: 4/5/10
  9. EverydayPhuong

    EverydayPhuong Fire in the hole!

    Tham gia ngày:
    15/3/09
    Bài viết:
    2,760
    The.Pacific.Part.8.'Iwo.Jima'.720p.HDTV.DD5.1.x264-SpK
     
  10. EverydayPhuong

    EverydayPhuong Fire in the hole!

    Tham gia ngày:
    15/3/09
    Bài viết:
    2,760
    The.Pacific.Part.9.'Okinawa'.720p.HDTV.DD5.1.x264-SpK
     
  11. EverydayPhuong

    EverydayPhuong Fire in the hole!

    Tham gia ngày:
    15/3/09
    Bài viết:
    2,760
    The.Pacific.Part.10.'Home'.720p.HDTV.DD5.1.x264-SpK
     
  12. Kira_h2c

    Kira_h2c title khác. GVN Veteran

    Tham gia ngày:
    14/7/08
    Bài viết:
    3,554
    Nơi ở:
    h2c1989
    Bản này sub V khớp ko vậy bác ?
     
  13. EverydayPhuong

    EverydayPhuong Fire in the hole!

    Tham gia ngày:
    15/3/09
    Bài viết:
    2,760
    Có. Sub khớp từng s một. :)
     
    Chỉnh sửa cuối: 28/4/10
  14. haiminh333

    haiminh333 Mr & Ms Pac-Man

    Tham gia ngày:
    7/6/06
    Bài viết:
    131
    Nơi ở:
    Tp.HCM
    Fix lại tập 6 đi bác, có link part1 vào được, còn 2 park kia vào chả có gì :(
     
  15. tikhi196

    tikhi196 Youtube Master Race

    Tham gia ngày:
    26/5/07
    Bài viết:
    17
    Chờ hàng :x :x :x Up chưa bác ơi :x
     
  16. EverydayPhuong

    EverydayPhuong Fire in the hole!

    Tham gia ngày:
    15/3/09
    Bài viết:
    2,760
    Update ep7. :)
     
  17. Elanazi

    Elanazi Youtube Master Race

    Tham gia ngày:
    5/5/10
    Bài viết:
    52
    ủa phim này có giới thiệu trên HBO , mà sao đến giờ màn hình nó đen thui ko cho mình xem là sao :(
     
  18. EverydayPhuong

    EverydayPhuong Fire in the hole!

    Tham gia ngày:
    15/3/09
    Bài viết:
    2,760
    Cái đó hỏi nhà đài chứ mình làm sao trả lời đc.
     
  19. Gallus

    Gallus Quy ẩn giang hồ Quy Ẩn

    Tham gia ngày:
    25/5/09
    Bài viết:
    801
    Trên HBO Asia cắt hết những đoạn máu me bạo lực với "ấy ấy" xem mất hay :">
     
  20. haiminh333

    haiminh333 Mr & Ms Pac-Man

    Tham gia ngày:
    7/6/06
    Bài viết:
    131
    Nơi ở:
    Tp.HCM
    Part 7 của bác là DIMENSION chứ ko phải là SpK bác ơi, fix lại đi.
     

Chia sẻ trang này