[Chia sẻ phim] [Fshare/Terabox] Detective Conan Movie 26 -Thám Tử Lừng Danh Conan - Tàu Ngầm Sắt Màu

Thảo luận trong 'Anime và Manga' bắt đầu bởi Kamenrider1997, 3/12/23.

  1. Kamenrider1997

    Kamenrider1997 Mr & Ms Pac-Man

    Tham gia ngày:
    31/10/23
    Bài viết:
    165
    Detective Conan Movie 26 -Thám Tử Lừng Danh Conan - Tàu Ngầm Sắt Màu Đen (2023) (Vietsub) [1080P]

    [​IMG]

    【 INFO 】
    Thám Tử Lừng Danh Conan: Tàu Ngầm Sắt Màu Đen lấy bối cảnh tại Pacific Buoy - một trụ sở hàng hải của Interpol có nhiệm vụ kết nối các camera an ninh trên toàn thế giới. Nhóm của Conan, theo lời mời của Sonoko, cũng đến đảo Hachijo để xem cá voi. Tại đây, Conan nhận được thông tin về một nhân viên Europol bị ám sát. Cùng với đó, tính mạng Haibara bị đe dọa, phải chăng thân phận của cô đã bị bại lộ trước Gin…

    Folder gồm:
    (Vietsub) Detective Conan Kurogane no Submarine-[1080p][BDRIP][x265.FLAC]-KM

    【 MEDIA INFO 】
    HTML:
    General
    Unique ID                                : 18451141531885102998497048349553403373 (0xDE18F8361175433950967A277EB25ED)
    Complete name                            : (Vietsub) Detective Conan Kurogane no Submarine-[1080p][BDRIP][x265.FLAC]-KM.mkv
    Format                                   : Matroska
    Format version                           : Version 4
    File size                                : 3.44 GiB
    Duration                                 : 1 h 49 min
    Overall bit rate mode                    : Variable
    Overall bit rate                         : 4 488 kb/s
    Frame rate                               : 23.976 FPS
    Movie name                               : 劇場版名探偵コナン 黒鉄の魚影
    Encoded date                             : 2023-12-03 08:35:16 UTC
    Writing application                      : mkvmerge v80.0 ('Roundabout') 64-bit
    Writing library                          : libebml v1.4.4 + libmatroska v1.7.1
    
    Video
    ID                                       : 1
    Format                                   : HEVC
    Format/Info                              : High Efficiency Video Coding
    Format profile                           : Main 10@L4.1@High
    Codec ID                                 : V_MPEGH/ISO/HEVC
    Duration                                 : 1 h 49 min
    Bit rate                                 : 3 833 kb/s
    Width                                    : 1 920 pixels
    Height                                   : 1 080 pixels
    Display aspect ratio                     : 16:9
    Frame rate mode                          : Constant
    Frame rate                               : 23.976 (24000/1001) FPS
    Color space                              : YUV
    Chroma subsampling                       : 4:2:0
    Bit depth                                : 10 bits
    Bits/(Pixel*Frame)                       : 0.077
    Stream size                              : 2.94 GiB (85%)
    Title                                    : 58405_lolice-EC
    Writing library                          : x265 3.5+97-ga456c6e73+3-g87155154d:[Windows][clang 14.0.4][64 bit] Kyouko 10bit+8bit+12bit
    Encoding settings                        : rc=crf / crf=16.0000 / qcomp=0.65 / qpstep=4 / stats-write=0 / stats-read=0 / vbv-maxrate=32000 / vbv-bufsize=32000 / vbv-init=0.9 / min-vbv-fullness=50.0 / max-vbv-fullness=80.0 / crf-max=0.0 / crf-min=0.0 / qscale-mode=0 / no-lossless / no-cu-lossless / aq-mode=3 / no-limit-aq1 / aq-strength=0.90 / aq-bias-strength=0.75 / limit-aq1-strength=1.00 / cbqpoffs=-2 / crqpoffs=-2 / ipratio=1.40 / pbratio=1.20 / psy-rd=1.80 / psy-rdoq=0.80 / psy-bscale=300 / psy-pscale=256 / psy-iscale=96 / deblock=-1:-1 / ref=5 / limit-refs=0 / no-limit-modes / bframes=16 / b-adapt=2 / bframe-bias=0 / b-pyramid / b-intra / weightp / weightb / min-keyint=1 / max-keyint=360 / rc-lookahead=180 / gop-lookahead=0 / scenecut=40 / hist-scenecut=0 / radl=0 / max-cu-size=32 / min-cu-size=8 / me=2 / subme=4 / merange=40 / rdoq-level=2 / rd=5 / rdpenalty=0 / dynamic-rd=0.00 / no-rd-refine / ----- / cutree / cutree-strength=1.75 / cutree-minqpoffs=-69.00 / cutree-maxqpoffs=69.00 / no-sao / no-rect / no-amp / no-open-gop / wpp / no-pmode / no-pme / no-psnr / no-ssim / nr-intra=0 / nr-inter=0 / no-constrained-intra / no-strong-intra-smoothing / max-tu-size=32 / tu-inter-depth=3 / tu-intra-depth=3 / limit-tu=2 / qg-size=8 / qpmax=69 / qpmin=0 / ----- / cpuid=1111039 / frame-threads=4 / numa-pools=16 / log-level=2 / input-csp=1 / input-res=1920x1080 / interlace=0 / level-idc=41 / high-tier=1 / uhd-bd=0 / no-allow-non-conformance / no-repeat-headers / no-aud / no-hrd / info / hash=0 / no-temporal-layers / lookahead-slices=0 / no-splice / no-intra-refresh / no-ssim-rd / signhide / no-tskip / max-merge=4 / temporal-mvp / no-frame-dup / hme / Level / merange / L0,L1,L2=16,24,40 / no-analyze-src-pics / no-sao-non-deblock / selective-sao=0 / no-early-skip / no-rskip / no-fast-intra / no-tskip-fast / no-splitrd-skip / zone-count=0 / no-strict-cbr / no-rc-grain / no-const-vbv / sar=0 / overscan=0 / videoformat=5 / range=0 / colorprim=2 / transfer=2 / colormatrix=2 / chromaloc=0 / display-window=0 / cll=0,0 / min-luma=0 / max-luma=1023 / log2-max-poc-lsb=8 / vui-timing-info / vui-hrd-info / slices=1 / no-opt-qp-pps / no-opt-ref-list-length-pps / no-multi-pass-opt-rps / scenecut-bias=0.05 / hist-threshold=0.03 / no-opt-cu-delta-qp / no-aq-motion / no-hdr10 / no-hdr10-opt / no-dhdr10-opt / no-idr-recovery-sei / analysis-reuse-level=0 / analysis-save-reuse-level=0 / analysis-load-reuse-level=0 / scale-factor=0 / refine-intra=0 / refine-inter=0 / refine-mv=1 / refine-ctu-distortion=0 / no-limit-sao / ctu-info=0 / no-lowpass-dct / refine-analysis-type=0 / copy-pic=1 / max-ausize-factor=1.0 / no-dynamic-refine / no-single-sei / no-hevc-aq / no-svt / no-field / qp-adaptation-range=1.00 / scenecut-aware-qp=0conformance-window-offsets / right=0 / bottom=0 / decoder-max-rate=0 / no-vbv-live-multi-pass
    Default                                  : Yes
    Forced                                   : No
    
    Audio
    ID                                       : 2
    Format                                   : FLAC
    Format/Info                              : Free Lossless Audio Codec
    Codec ID                                 : A_FLAC
    Duration                                 : 1 h 49 min
    Bit rate mode                            : Variable
    Bit rate                                 : 653 kb/s
    Channel(s)                               : 2 channels
    Channel layout                           : L R
    Sampling rate                            : 48.0 kHz
    Frame rate                               : 10.417 FPS (4608 SPF)
    Bit depth                                : 16 bits
    Compression mode                         : Lossless
    Stream size                              : 512 MiB (15%)
    Title                                    : FLAC 2.0
    Writing library                          : Lavf59.27.100
    Language                                 : Japanese
    Default                                  : Yes
    Forced                                   : No
    MD5 of the unencoded content             : FEF49628C2C949A49E8737DE250B9C46
    
    Text #3
    ID                                       : 5
    Format                                   : UTF-8
    Codec ID                                 : S_TEXT/UTF8
    Codec ID/Info                            : UTF-8 Plain Text
    Duration                                 : 1 h 49 min
    Bit rate                                 : 79 b/s
    Frame rate                               : 0.240 FPS
    Count of elements                        : 1571
    Stream size                              : 63.5 KiB (0%)
    Language                                 : Vietnamese
    Default                                  : Yes
    Forced                                   : No
    
    Menu
    00:00:00.000                             : ja:Chapter 01
    00:01:56.324                             : ja:Chapter 02
    00:08:18.206                             : ja:Chapter 03
    00:11:08.250                             : ja:Chapter 04
    00:18:35.906                             : ja:Chapter 05
    00:24:09.990                             : ja:Chapter 06
    00:31:08.741                             : ja:Chapter 07
    00:35:17.448                             : ja:Chapter 08
    00:46:07.598                             : ja:Chapter 09
    00:49:49.653                             : ja:Chapter 10
    00:56:20.126                             : ja:Chapter 11
    01:04:23.860                             : ja:Chapter 12
    01:12:38.062                             : ja:Chapter 13
    01:17:48.955                             : ja:Chapter 14
    01:25:54.315                             : ja:Chapter 15
    01:30:58.911                             : ja:Chapter 16
    01:34:49.517                             : ja:Chapter 17
    01:37:57.580                             : ja:Chapter 18
    01:42:25.139                             : ja:Chapter 19
    01:49:22.556                             : ja:Chapter 20

    【 SCREENSHOT 】
    [​IMG]
    [​IMG]
    [​IMG]

    [​IMG]
    DOWNLOAD
    Tổng hợp phim Anime:
    DOWNLOAD

    TỔNG HỢP PHIM/NHẠC/SÁCH
    DOWNLOAD

    DANH SÁCH PHIM MỚI CẬP NHẬT LIÊN TỤC:
    DOWNLOAD


    [​IMG]

    DOWNLOAD
    Tổng hợp phim Anime:
    DOWNLOAD

    TỔNG HỢP PHIM/NHẠC/SÁCH
    DOWNLOAD

    Bài viết tổng hợp trong Forum:
    TỔNG HỢP CHIA SẺ PHIM [Fshare/Terabox]

    P.s: Mình có hoạt động thêm bên Telegram, mời mọi người cùng tham gia bàn luận cho sôm nhé! Hiện tại group sắp đạt mốc 300 member, khi đạt mốc này mình sẽ tổ chức event nhỏ GA 3 tài khoản vip Fshare 1 tháng, mọi người nhớ tham gia nhé! ^^
    Group: Phim Hay Mỗi Ngày (https://t.me/groupphimhayeveryday)

    Kênh: Phim Hay Mỗi Ngày (https://t.me/phimhayeveryday)
     

Chia sẻ trang này